Khel Kismat Ka (AAA) (2019) Hindi - 1080p - WEB-HD - AVC - AAC-GM Exclusive

Khel Kismat Ka (AAA) (2019) Hindi - 1080p - WEB-HD - AVC - AAC-GM Exclusive





Format                                   : MPEG-4
Format profile                           : Base Media
Codec ID                                 : isom (isom/iso2/avc1/mp41)
File size                                : 1.54 GiB
Duration                                 : 2 h 0 min
Overall bit rate                         : 1 828 kb/s
Writing application                      : Lavf58.9.100

Video
ID                                       : 1
Format                                   : AVC
Format/Info                              : Advanced Video Codec
Format profile                           : High@L4
Format settings                          : CABAC / 3 Ref Frames
Format settings, CABAC                   : Yes
Format settings, RefFrames               : 3 frames
Codec ID                                 : avc1
Codec ID/Info                            : Advanced Video Coding
Duration                                 : 2 h 0 min
Bit rate                                 : 1 694 kb/s
Width                                    : 1 920 pixels
Height                                   : 1 080 pixels
Display aspect ratio                     : 16:9
Frame rate mode                          : Constant
Frame rate                               : 25.000 FPS
Color space                              : YUV
Chroma subsampling                       : 4:2:0
Bit depth                                : 8 bits
Scan type                                : Progressive
Bits/(Pixel*Frame)                       : 0.033
Stream size                              : 1.42 GiB (93%)
Writing library                          : x264 core 155 r2901 7d0ff22
Color range                              : Limited
Color primaries                          : BT.709
Transfer characteristics                 : BT.709
Matrix coefficients                      : BT.709
Codec configuration box                  : avcC

Audio
ID                                       : 2
Format                                   : AAC LC
Format/Info                              : Advanced Audio Codec Low Complexity
Codec ID                                 : mp4a-40-2
Duration                                 : 2 h 0 min
Bit rate mode                            : Constant
Bit rate                                 : 128 kb/s
Channel(s)                               : 2 channels
Channel layout                           : L R
Sampling rate                            : 44.1 kHz
Frame rate                               : 43.066 FPS (1024 SPF)
Compression mode                         : Lossy
Stream size                              : 110 MiB (7%)
Language                                 : English
Default                                  : Yes
Alternate group                          : 1





SINGLE DIRECT FAST LINKS


https://www.heroupload.com/74f41efebd10cf76/Khel.Kismat.Ka-AAA.2019.Hindi.1080p.WEB-HD.AVC.AAC-GM.mp4



Buy Premium From My Links & Support Me
шаблоны для dle 11.2