2.0 (2018) Telugu (Org Vers) 1080p - HDTV - AVC - UNTOUCHED - AAC-BWT Exclusive

2.0 (2018) Telugu (Org Vers) 1080p - HDTV - AVC - UNTOUCHED - AAC-BWT Exclusive





Format                                   : MPEG-4
Format profile                           : Base Media
Codec ID                                 : isom (isom/iso2/avc1/mp41)
File size                                : 8.66 GiB
Duration                                 : 2 h 18 min
Overall bit rate                         : 8 930 kb/s
Writing application                      : Lavf58.25.100

Video
ID                                       : 1
Format                                   : AVC
Format/Info                              : Advanced Video Codec
Format profile                           : Baseline@L4
Format settings                          : 1 Ref Frames
Format settings, CABAC                   : No
Format settings, RefFrames               : 1 frame
Codec ID                                 : avc1
Codec ID/Info                            : Advanced Video Coding
Duration                                 : 2 h 18 min
Bit rate                                 : 8 795 kb/s
Width                                    : 1 920 pixels
Height                                   : 1 080 pixels
Display aspect ratio                     : 16:9
Frame rate mode                          : Variable
Frame rate                               : 25.000 FPS
Minimum frame rate                       : 17.067 FPS
Maximum frame rate                       : 25.000 FPS
Standard                                 : Component
Color space                              : YUV
Chroma subsampling                       : 4:2:0
Bit depth                                : 8 bits
Scan type                                : Progressive
Bits/(Pixel*Frame)                       : 0.170
Stream size                              : 8.53 GiB (98%)
Color range                              : Limited
Color primaries                          : BT.709
Transfer characteristics                 : BT.709
Matrix coefficients                      : BT.709
Codec configuration box                  : avcC

Audio
ID                                       : 2
Format                                   : AAC LC
Format/Info                              : Advanced Audio Codec Low Complexity
Codec ID                                 : mp4a-40-2
Duration                                 : 2 h 18 min
Bit rate mode                            : Constant
Bit rate                                 : 129 kb/s
Channel(s)                               : 2 channels
Channel layout                           : L R
Sampling rate                            : 48.0 kHz
Frame rate                               : 46.875 FPS (1024 SPF)
Compression mode                         : Lossy
Stream size                              : 128 MiB (1%)
Default                                  : Yes
Alternate group                          : 1





SINGLE DIRECT FAST LINKS

https://www.heroupload.com/e2ba950c45f41328/2.0.2018.Telugu.Org.Vers.Proper.HDTV.1080p.AVC.UNTOUCHED-BWT.mp4


1GB LINKS



https://www.heroupload.com/8f5a2b026234cedd/2.0.2018.Telugu.Org.Vers.Proper.HDTV.1080p.AVC.UNTOUCHED-BWT.part01.rar
https://www.heroupload.com/9966e4c414993a38/2.0.2018.Telugu.Org.Vers.Proper.HDTV.1080p.AVC.UNTOUCHED-BWT.part02.rar
https://www.heroupload.com/e3ec391c82e54cd2/2.0.2018.Telugu.Org.Vers.Proper.HDTV.1080p.AVC.UNTOUCHED-BWT.part03.rar
https://www.heroupload.com/d5f05c9705a248f8/2.0.2018.Telugu.Org.Vers.Proper.HDTV.1080p.AVC.UNTOUCHED-BWT.part04.rar
https://www.heroupload.com/d361ec550cac78be/2.0.2018.Telugu.Org.Vers.Proper.HDTV.1080p.AVC.UNTOUCHED-BWT.part05.rar
https://www.heroupload.com/1a26582fde080a59/2.0.2018.Telugu.Org.Vers.Proper.HDTV.1080p.AVC.UNTOUCHED-BWT.part06.rar
https://www.heroupload.com/2708dcc1ad6f7e05/2.0.2018.Telugu.Org.Vers.Proper.HDTV.1080p.AVC.UNTOUCHED-BWT.part07.rar
https://www.heroupload.com/4e8f3224d346f796/2.0.2018.Telugu.Org.Vers.Proper.HDTV.1080p.AVC.UNTOUCHED-BWT.part08.rar
https://www.heroupload.com/40f2411e5e4a5748/2.0.2018.Telugu.Org.Vers.Proper.HDTV.1080p.AVC.UNTOUCHED-BWT.part09.rar





Buy Premium From My Links & Support Me
шаблоны для dle 11.2