Aksar 2 (2017) 1080p Untouched HDTV AVC AAC-MCr Exclusive

Aksar 2 (2017) 1080p Untouched HDTV AVC AAC-MCr Exclusive






General
Format                      : MPEG-4
Format profile              : Base Media / Version 2
Codec ID                    : mp42 (mp42)
File size                   : 3.21 GiB
Duration                    : 1 h 50 min
Overall bit rate            : 4 153 kb/s
Codirector                  : codirector
Production studio           : studio
ContentType                 : Unknown Type
Encoded date                : UTC 2018-06-02 02:12:42
Tagged date                 : UTC 2018-06-02 02:12:42

Video
ID                          : 1
Format                      : AVC
Format/Info                 : Advanced Video Codec
Format profile              : Main@L4.1
Format settings, CABAC      : Yes
Format settings, RefFrames  : 2 frames
Format settings, GOP        : M=3, N=25
Muxing mode                 : Container profile=Baseline@3.0
Codec ID                    : avc1
Codec ID/Info               : Advanced Video Coding
Duration                    : 1 h 50 min
Bit rate                    : 4 018 kb/s
Width                       : 1 920 pixels
Height                      : 1 080 pixels
Display aspect ratio        : 16:9
Frame rate mode             : Constant
Frame rate                  : 30.000 FPS
Color space                 : YUV
Chroma subsampling          : 4:2:0
Bit depth                   : 8 bits
Scan type                   : Progressive
Bits/(Pixel*Frame)          : 0.065
Stream size                 : 3.11 GiB (97%)
Language                    : English

Audio
ID                          : 2
Format                      : AAC
Format/Info                 : Advanced Audio Codec
Format profile              : LC
Codec ID                    : 40
Duration                    : 1 h 50 min
Bit rate mode               : Constant
Bit rate                    : 128 kb/s
Channel(s)                  : 2 channels
Channel positions           : Front: L R
Sampling rate               : 44.1 kHz
Frame rate                  : 43.066 FPS (1024 SPF)
Compression mode            : Lossy
Stream size                 : 101 MiB (3%)
Title                       : Stereo
Language                    : English
Default                     : Yes
Alternate group             : 1







SINGLE DIRECT FAST LINKS
http://www.heroupload.us/ea03a21afb494a93/Aksar.2.2017.1080p.Hindi.HDTV.Untouched.AVC.AAC-MCR.Exclusive.mp4


http://filefloater.com/1jjH/Aksar.2.2017.1080p.Hindi.HDTV.Untouched.AVC.AAC-MCR.Exclusive.mp4

1GB LINKS

http://www.heroupload.us/db2cb06bef3a5b48/Aksar.2.2017.1080p.Hindi.HDTV.Untouched.AVC.AAC-MCR.Exclusive.part1.rar
http://www.heroupload.us/7362df55a3107948/Aksar.2.2017.1080p.Hindi.HDTV.Untouched.AVC.AAC-MCR.Exclusive.part2.rar
http://www.heroupload.us/1edb58f41bd73dbb/Aksar.2.2017.1080p.Hindi.HDTV.Untouched.AVC.AAC-MCR.Exclusive.part3.rar
http://www.heroupload.us/08ca5981fc9cbf75/Aksar.2.2017.1080p.Hindi.HDTV.Untouched.AVC.AAC-MCR.Exclusive.part4.rar



http://filefloater.com/1jjI/Aksar.2.2017.1080p.Hindi.HDTV.Untouched.AVC.AAC-MCR.Exclusive.part1.rar
http://filefloater.com/1jjJ/Aksar.2.2017.1080p.Hindi.HDTV.Untouched.AVC.AAC-MCR.Exclusive.part2.rar
http://filefloater.com/1jjK/Aksar.2.2017.1080p.Hindi.HDTV.Untouched.AVC.AAC-MCR.Exclusive.part3.rar
http://filefloater.com/1jjL/Aksar.2.2017.1080p.Hindi.HDTV.Untouched.AVC.AAC-MCR.Exclusive.part4.rar



шаблоны для dle 11.2