Anaganaga O Premakatha (2018) Telugu - 1080p - UNTOUCHED - AVC - DD5.1 - Esubs-TMV

Anaganaga O Premakatha (2018) Telugu - 1080p - UNTOUCHED - AVC - DD5.1 - Esubs-TMV




Format                                   : Matroska
Format version                           : Version 4
File size                                : 8.88 GiB
Duration                                 : 2 h 5 min
Overall bit rate                         : 10.2 Mb/s
Encoded date                             : UTC 2019-02-09 01:58:52
Writing application                      : mkvmerge v25.0.0 ('Prog Noir') 32-bit
Writing library                          : libebml v1.3.6 + libmatroska v1.4.9

Video
ID                                       : 1
Format                                   : AVC
Format/Info                              : Advanced Video Codec
Format profile                           : High@L4
Format settings                          : CABAC / 4 Ref Frames
Format settings, CABAC                   : Yes
Format settings, RefFrames               : 4 frames
Format settings, GOP                     : M=4, N=48
Codec ID                                 : V_MPEG4/ISO/AVC
Duration                                 : 2 h 5 min
Bit rate mode                            : Constant
Bit rate                                 : 10 000 kb/s
Width                                    : 1 920 pixels
Height                                   : 816 pixels
Display aspect ratio                     : 2.35:1
Frame rate mode                          : Constant
Frame rate                               : 24.000 FPS
Color space                              : YUV
Chroma subsampling                       : 4:2:0
Bit depth                                : 8 bits
Scan type                                : Progressive
Bits/(Pixel*Frame)                       : 0.266
Stream size                              : 8.66 GiB (97%)
Default                                  : Yes
Forced                                   : No
Color range                              : Limited
Color primaries                          : BT.709
Transfer characteristics                 : BT.709
Matrix coefficients                      : BT.709

Audio
ID                                       : 2
Format                                   : E-AC-3
Format/Info                              : Enhanced AC-3
Commercial name                          : Dolby Digital Plus
Codec ID                                 : A_EAC3
Duration                                 : 2 h 5 min
Bit rate mode                            : Constant
Bit rate                                 : 256 kb/s
Channel(s)                               : 6 channels
Channel layout                           : L R C LFE Ls Rs
Sampling rate                            : 48.0 kHz
Frame rate                               : 31.250 FPS (1536 SPF)
Compression mode                         : Lossy
Stream size                              : 229 MiB (3%)
Title                                    : Telugu
Language                                 : Telugu
Service kind                             : Complete Main
Default                                  : No
Forced                                   : No

Text
ID                                       : 3
Format                                   : UTF-8
Codec ID                                 : S_TEXT/UTF8
Codec ID/Info                            : UTF-8 Plain Text
Duration                                 : 2 h 2 min
Bit rate                                 : 69 b/s
Count of elements                        : 1856
Stream size                              : 61.9 KiB (0%)
Title                                    : English [SDH]
Language                                 : English
Default                                  : No
Forced                                   : No






SINGLE DIRECT FAST LINKS

https://www.heroupload.com/485b2917e49634f2/Anaganaga.O.Premakatha.2018.Telugu.WEB-DL.1080p.UNTOUCHED.AVC.DD5.1.ESub-TMV.mkv


1GB LINKS


https://www.heroupload.com/618d32ea930399e9/Anaganaga.O.Premakatha.2018.Telugu.WEB-DL.1080p.UNTOUCHED.AVC.DD5.1.ESub-TMV.part01.rar
https://www.heroupload.com/5456f2765ef9f3f2/Anaganaga.O.Premakatha.2018.Telugu.WEB-DL.1080p.UNTOUCHED.AVC.DD5.1.ESub-TMV.part02.rar
https://www.heroupload.com/36c89b36253f0537/Anaganaga.O.Premakatha.2018.Telugu.WEB-DL.1080p.UNTOUCHED.AVC.DD5.1.ESub-TMV.part03.rar
https://www.heroupload.com/57ce695c0a626e6a/Anaganaga.O.Premakatha.2018.Telugu.WEB-DL.1080p.UNTOUCHED.AVC.DD5.1.ESub-TMV.part04.rar
https://www.heroupload.com/088aa7d8c1d485e6/Anaganaga.O.Premakatha.2018.Telugu.WEB-DL.1080p.UNTOUCHED.AVC.DD5.1.ESub-TMV.part05.rar
https://www.heroupload.com/38726cae2ea1f08d/Anaganaga.O.Premakatha.2018.Telugu.WEB-DL.1080p.UNTOUCHED.AVC.DD5.1.ESub-TMV.part06.rar
https://www.heroupload.com/01871a4681ec2ca1/Anaganaga.O.Premakatha.2018.Telugu.WEB-DL.1080p.UNTOUCHED.AVC.DD5.1.ESub-TMV.part07.rar
https://www.heroupload.com/09b3838fd0bc769f/Anaganaga.O.Premakatha.2018.Telugu.WEB-DL.1080p.UNTOUCHED.AVC.DD5.1.ESub-TMV.part08.rar
https://www.heroupload.com/92c558bda650e76b/Anaganaga.O.Premakatha.2018.Telugu.WEB-DL.1080p.UNTOUCHED.AVC.DD5.1.ESub-TMV.part09.rar


Buy Premium From My Links & Support Me
шаблоны для dle 11.2