Widows (2018) 1080p BluRay x264 DD5.1 [Dual Audio][Hindi+English] - Ranvijay

Widows (2018) 1080p BluRay x264 DD5.1 [Dual Audio][Hindi+English] - Ranvijay





Format : Matroska
Format version : Version 4 / Version 2
File size : 4.46 GiB
Duration : 2 h 9 min
Overall bit rate : 4 931 kb/s
Movie name : Widows (2018) 1080p BluRay x264 Dual Audio [Hindi DD5.1 - English DD5.1] - MSUBS ~ Ranvijay

Video
ID : 1
Format : AVC
Format/Info : Advanced Video Codec
Duration : 2 h 9 min
Bit rate : 4 000 kb/s
Width : 1 920 pixels
Height : 800 pixels
Display aspect ratio : 2.40:1
Frame rate mode : Constant
Frame rate : 23.976 (24000/1001) FPS
Color space : YUV
Chroma subsampling : 4:2:0
Bit depth : 8 bits
Scan type : Progressive
Bits/(Pixel*Frame) : 0.109
Stream size : 3.62 GiB (81%)
Title : ~Ranvijay~

Audio #1
ID : 2
Format : AC-3
Format/Info : Audio Coding 3
Codec ID : A_AC3
Duration : 2 h 9 min
Bit rate mode : Constant
Bit rate : 448 kb/s
Channel(s) : 6 channels
Channel positions : Front: L C R, Side: L R, LFE
Sampling rate : 48.0 kHz
Frame rate : 31.250 FPS (1536 SPF)
Bit depth : 16 bits
Compression mode : Lossy
Stream size : 415 MiB (9%)
Title : ~Ranvijay~
Language : Hindi
Service kind : Complete Main
Default : Yes
Forced : Yes

Audio #2
ID : 3
Format : AC-3
Format/Info : Audio Coding 3
Codec ID : A_AC3
Duration : 2 h 9 min
Bit rate mode : Constant
Bit rate : 448 kb/s
Channel(s) : 6 channels
Channel positions : Front: L C R, Side: L R, LFE
Sampling rate : 48.0 kHz
Frame rate : 31.250 FPS (1536 SPF)
Bit depth : 16 bits
Compression mode : Lossy
Stream size : 415 MiB (9%)
Title : ~Ranvijay~
Language : English
Service kind : Complete Main
Default : No
Forced : No

Text #1
ID : 4
Format : PGS
Muxing mode : zlib
Codec ID : S_HDMV/PGS
Codec ID/Info : Picture based subtitle format used on BDs/HD-DVDs
Duration : 2 h 5 min
Bit rate : 46.6 kb/s
Count of elements : 4212
Stream size : 42.0 MiB (1%)
Title : ~Ranvijay~
Language : English
Default : Yes
Forced : Yes

Text #2
ID : 5
Format : PGS
Muxing mode : zlib
Codec ID : S_HDMV/PGS
Codec ID/Info : Picture based subtitle format used on BDs/HD-DVDs
Duration : 2 h 8 min
Bit rate : 51.8 kb/s
Count of elements : 3250
Stream size : 47.5 MiB (1%)
Title : ~Ranvijay~
Language : Hindi
Default : No
Forced : No 






















SINGLE DIRECT FAST LINKS

https://www.heroupload.com/f4f8ebdab1677249/Widows.2018.1080p.BluRay.x264.Dual.Audio.Hindi.DD5.1+English.DD5.1.MSUBS-Ranvijay.mkv


1GB LINKS


https://www.heroupload.com/1f01df73a43bf8b9/Widows.2018.1080p.BluRay.x264.Dual.Audio.Hindi.DD5.1+English.DD5.1.MSUBS-Ranvijay.part1.rar
https://www.heroupload.com/b79bef5d3d4ed30b/Widows.2018.1080p.BluRay.x264.Dual.Audio.Hindi.DD5.1+English.DD5.1.MSUBS-Ranvijay.part2.rar
https://www.heroupload.com/2fee27d3689154c2/Widows.2018.1080p.BluRay.x264.Dual.Audio.Hindi.DD5.1+English.DD5.1.MSUBS-Ranvijay.part3.rar
https://www.heroupload.com/1a7b0f790e2b4ad0/Widows.2018.1080p.BluRay.x264.Dual.Audio.Hindi.DD5.1+English.DD5.1.MSUBS-Ranvijay.part4.rar
https://www.heroupload.com/6cdf95629859b926/Widows.2018.1080p.BluRay.x264.Dual.Audio.Hindi.DD5.1+English.DD5.1.MSUBS-Ranvijay.part5.rar


Buy Premium From My Links & Support Me
шаблоны для dle 11.2