K.G.F: Chapter 1 (2018) Tamil - 1080p - WEB-DL - UNTOUCHED - AVC - DD5.1-DDR

K.G.F: Chapter 1 (2018) Tamil - 1080p - WEB-DL - UNTOUCHED - AVC - DD5.1-DDR





Format                                   : Matroska
Format version                           : Version 4
File size                                : 7.75 GiB
Duration                                 : 2 h 34 min
Overall bit rate                         : 7 169 kb/s
Encoded date                             : UTC 2019-02-04 19:46:24
Writing application                      : mkvmerge v25.0.0 ('Prog Noir') 32-bit
Writing library                          : libebml v1.3.6 + libmatroska v1.4.9

Video
ID                                       : 1
Format                                   : AVC
Format/Info                              : Advanced Video Codec
Format profile                           : High@L4
Format settings                          : CABAC / 4 Ref Frames
Format settings, CABAC                   : Yes
Format settings, RefFrames               : 4 frames
Codec ID                                 : V_MPEG4/ISO/AVC
Duration                                 : 2 h 34 min
Bit rate                                 : 6 527 kb/s
Width                                    : 1 920 pixels
Height                                   : 816 pixels
Display aspect ratio                     : 2.35:1
Frame rate mode                          : Constant
Frame rate                               : 25.000 FPS
Color space                              : YUV
Chroma subsampling                       : 4:2:0
Bit depth                                : 8 bits
Scan type                                : Progressive
Bits/(Pixel*Frame)                       : 0.167
Stream size                              : 7.05 GiB (91%)
Default                                  : Yes
Forced                                   : No
Color range                              : Limited
Color primaries                          : BT.709
Transfer characteristics                 : BT.709
Matrix coefficients                      : BT.709

Audio
ID                                       : 2
Format                                   : E-AC-3
Format/Info                              : Enhanced AC-3
Commercial name                          : Dolby Digital Plus
Codec ID                                 : A_EAC3
Duration                                 : 2 h 34 min
Bit rate mode                            : Constant
Bit rate                                 : 640 kb/s
Channel(s)                               : 6 channels
Channel layout                           : L R C LFE Ls Rs
Sampling rate                            : 48.0 kHz
Frame rate                               : 31.250 FPS (1536 SPF)
Compression mode                         : Lossy
Stream size                              : 708 MiB (9%)
Title                                    : Tamil
Language                                 : Tamil
Service kind                             : Complete Main
Default                                  : No
Forced                                   : No

Text
ID                                       : 3
Format                                   : UTF-8
Codec ID                                 : S_TEXT/UTF8
Codec ID/Info                            : UTF-8 Plain Text
Duration                                 : 2 h 29 min
Bit rate                                 : 57 b/s
Count of elements                        : 2245
Stream size                              : 62.5 KiB (0%)
Title                                    : English [SDH]
Language                                 : English
Default                                  : No
Forced                                   : No




SINGLE DIRECT FAST LINKS

https://www.heroupload.com/a751a2bd5b002db2/K.G.F.Chapter.1.2018.Tamil.WEB-DL.1080p.UNTOUCHED.AVC.DD5.1.ESub-DDR.mkv


1GB LINKS


https://www.heroupload.com/f0ecfb3219b39656/K.G.F.Chapter.1.2018.Tamil.WEB-DL.1080p.UNTOUCHED.AVC.DD5.1.ESub-DDR.part1.rar
https://www.heroupload.com/f6f765638de83dca/K.G.F.Chapter.1.2018.Tamil.WEB-DL.1080p.UNTOUCHED.AVC.DD5.1.ESub-DDR.part2.rar
https://www.heroupload.com/72568730f34db3b9/K.G.F.Chapter.1.2018.Tamil.WEB-DL.1080p.UNTOUCHED.AVC.DD5.1.ESub-DDR.part3.rar
https://www.heroupload.com/a1387c7f6e52c5c4/K.G.F.Chapter.1.2018.Tamil.WEB-DL.1080p.UNTOUCHED.AVC.DD5.1.ESub-DDR.part4.rar
https://www.heroupload.com/d2f5424482cda7bf/K.G.F.Chapter.1.2018.Tamil.WEB-DL.1080p.UNTOUCHED.AVC.DD5.1.ESub-DDR.part5.rar
https://www.heroupload.com/4cb58d5c10bde386/K.G.F.Chapter.1.2018.Tamil.WEB-DL.1080p.UNTOUCHED.AVC.DD5.1.ESub-DDR.part6.rar
https://www.heroupload.com/106a0e70ccaf2c6f/K.G.F.Chapter.1.2018.Tamil.WEB-DL.1080p.UNTOUCHED.AVC.DD5.1.ESub-DDR.part7.rar
https://www.heroupload.com/5e407adbc1bd3775/K.G.F.Chapter.1.2018.Tamil.WEB-DL.1080p.UNTOUCHED.AVC.DD5.1.ESub-DDR.part8.rar


Buy Premium From My Links & Support Me
шаблоны для dle 11.2