Mission Impossible Fallout (2018) 720p - WEB-DL - x264 [Dual Audio][Hindi+Englissh]

Mission Impossible Fallout (2018) 720p - WEB-DL - x264 [Dual Audio][Hindi+Englissh]






General
Format : Matroska
Format version : Version 4 / Version 2
File size : 1.34 GiB
Duration : 2 h 27 min
Overall bit rate : 1 295 kb/s

Video
ID : 1
Format : AVC
Format/Info : Advanced Video Codec
Format profile : High@L4.1
Format settings : CABAC / 4 Ref Frames
Format settings, CABAC : Yes
Format settings, RefFrames : 4 frames
Codec ID : V_MPEG4/ISO/AVC
Duration : 2 h 27 min
Bit rate : 1 100 kb/s
Width : 1 280 pixels
Height : 536 pixels
Display aspect ratio : 2.40:1
Frame rate mode : Constant
Frame rate : 23.976 (24000/1001) FPS
Color space : YUV
Chroma subsampling : 4:2:0
Bit depth : 8 bits
Scan type : Progressive
Bits/(Pixel*Frame) : 0.067
Stream size : 1.10 GiB (82%)
Writing library : x264 core 155 r2901 7d0ff22
Default : Yes
Forced : No

Audio #1
ID : 2
Format : AAC
Format/Info : Advanced Audio Codec
Format profile : LC
Codec ID : A_AAC-2
Duration : 2 h 27 min
Bit rate : 128 kb/s
Channel(s) : 2 channels
Channel positions : Front: L R
Sampling rate : 48.0 kHz
Frame rate : 46.875 FPS (1024 SPF)
Compression mode : Lossy
Stream size : 135 MiB (10%)
Language : Hindi
Default : Yes
Forced : No

Audio #2
ID : 3
Format : AAC
Format/Info : Advanced Audio Codec
Format profile : LC
Codec ID : A_AAC-2
Duration : 2 h 27 min
Bit rate : 96.0 kb/s
Channel(s) : 2 channels
Channel positions : Front: L R
Sampling rate : 48.0 kHz
Frame rate : 46.875 FPS (1024 SPF)
Compression mode : Lossy
Stream size : 102 MiB (7%)
Language : English
Default : No
Forced : No

Text
ID : 4
Format : UTF-8
Codec ID : S_TEXT/UTF8
Codec ID/Info : UTF-8 Plain Text
Duration : 2 h 19 min
Bit rate : 92 b/s
Count of elements : 1856
Stream size : 94.8 KiB (0%)
Language : English
Default : Yes
Forced : No





SINGLE DIRECT FAST LINKS

http://www.heroupload.us/16220ae0fc4c3a97/Mission.Impossible.Fallout.2018.720p.WEB-DL.x264.Dual.Audio.Hindi+English.ESub-MW.mkv



http://filefloater.com/V85/Mission.Impossible.Fallout.2018.720p.WEB-DL.x264.Dual.Audio.Hindi+English.ESub-MW.mkv



Buy Premium From My Links & Support Me
шаблоны для dle 11.2