96 (2018) Tamil - 720p - HDRip - x264 - AC3 2.0 - ESubs-MTR

96 (2018) Tamil - 720p - HDRip - x264 - AC3 2.0 - ESubs-MTR





Format                      : Matroska
Format version              : Version 4 / Version 2
File size                   : 2.43 GiB
Duration                    : 2 h 35 min
Overall bit rate            : 2 239 kb/s
Encoded date                : UTC 2018-11-06T16:53:33Z
Writing application         : HandBrake 1.1.2 2018090500
Writing library             : Lavf57.7.2

Video
ID                          : 1
Format                      : AVC
Format/Info                 : Advanced Video Codec
Format profile              : Main@L4
Format settings, CABAC      : Yes
Format settings, RefFrames  : 4 frames
Codec ID                    : V_MPEG4/ISO/AVC
Duration                    : 2 h 35 min
Bit rate                    : 2 128 kb/s
Width                       : 1 920 pixels
Height                      : 912 pixels
Display aspect ratio        : 2.105
Frame rate mode             : Constant
Frame rate                  : 24.000 FPS
Color space                 : YUV
Chroma subsampling          : 4:2:0
Bit depth                   : 8 bits
Scan type                   : Progressive
Bits/(Pixel*Frame)          : 0.051
Stream size                 : 2.24 GiB (92%)
Writing library             : x264 core 155 r2901 7d0ff22
Encoding settings           : cabac=1 / ref=1 / deblock=1:0:0 / analyse=0x1:0x111 / me=hex / subme=2 / psy=1 / psy_rd=1.00:0.00 / mixed_ref=0 / me_range=16 / chroma_me=1 / trellis=0 / 8x8dct=0 / cqm=0 / deadzone=21,11 / fast_pskip=1 / chroma_qp_offset=0 / threads=28 / lookahead_threads=7 / sliced_threads=0 / nr=0 / decimate=1 / interlaced=0 / bluray_compat=0 / constrained_intra=0 / bframes=3 / b_pyramid=2 / b_adapt=1 / b_bias=0 / direct=1 / weightb=1 / open_gop=0 / weightp=1 / keyint=240 / keyint_min=24 / scenecut=40 / intra_refresh=0 / rc_lookahead=10 / rc=abr / mbtree=1 / bitrate=2128 / ratetol=1.0 / qcomp=0.60 / qpmin=0 / qpmax=69 / qpstep=4 / vbv_maxrate=20000 / vbv_bufsize=25000 / nal_hrd=none / filler=0 / ip_ratio=1.40 / aq=1:1.00
Default                     : Yes
Forced                      : No
Color range                 : Limited
Color primaries             : BT.601 NTSC
Transfer characteristics    : BT.709
Matrix coefficients         : BT.601

Audio
ID                          : 2
Format                      : MPEG Audio
Format version              : Version 1
Format profile              : Layer 3
Mode                        : Joint stereo
Mode extension              : MS Stereo
Codec ID                    : A_MPEG/L3
Codec ID/Hint               : MP3
Duration                    : 2 h 35 min
Bit rate mode               : Constant
Bit rate                    : 128 kb/s
Channel(s)                  : 2 channels
Sampling rate               : 48.0 kHz
Compression mode            : Lossy
Delay relative to video     : -83 ms
Stream size                 : 142 MiB (6%)
Title                       : Stereo
Writing library             : LAME3.100
Default                     : Yes
Forced                      : No







SINGLE DIRECT FAST LINKS
http://www.heroupload.us/bbb8b61aa48de105/96.2018.Tamil.1080p.HDRip.x264.ESubs-MTR.mkv


http://filefloater.com/1l8z/96.2018.Tamil.1080p.HDRip.x264.ESubs-MTR.mkv

700MB LINKS


http://www.heroupload.us/96f5f22db7050c79/96.2018.Tamil.1080p.HDRip.x264.ESubs-MTR.part1.rar
http://www.heroupload.us/812f5af074e157bc/96.2018.Tamil.1080p.HDRip.x264.ESubs-MTR.part2.rar
http://www.heroupload.us/d9dd34a01900d94d/96.2018.Tamil.1080p.HDRip.x264.ESubs-MTR.part3.rar
http://www.heroupload.us/3e27a1363dadb99e/96.2018.Tamil.1080p.HDRip.x264.ESubs-MTR.part4.rar



http://filefloater.com/1L9u/96.2018.Tamil.1080p.HDRip.x264.ESubs-MTR.part1.rar
http://filefloater.com/1L9v/96.2018.Tamil.1080p.HDRip.x264.ESubs-MTR.part2.rar
http://filefloater.com/1L9w/96.2018.Tamil.1080p.HDRip.x264.ESubs-MTR.part3.rar
http://filefloater.com/1l8D/96.2018.Tamil.1080p.HDRip.x264.ESubs-MTR.part4.rar



Buy Premium From My Links & Support Me
шаблоны для dle 11.2