Street Lights (2018) Malayalam - 1080p - WEB-HD - AVC - AAC - ESub-TMV

Street Lights (2018) Malayalam - 1080p - WEB-HD - AVC - AAC - ESub-TMV





Format                      : MPEG-4
Codec ID                    : M4V  (isom/M4A /M4V /mp42)
File size                   : 3.87 GiB
Duration                    : 2 h 1 min
Overall bit rate mode       : Variable
Overall bit rate            : 4 564 kb/s
Encoded date                : UTC 2018-11-04 14:04:27
Tagged date                 : UTC 2018-11-04 14:04:27
Writing application         : MkvToMp4 [www.mkvtomp4.ru] version 0.224 (x64)

Video
ID                          : 1
Format                      : AVC
Format/Info                 : Advanced Video Codec
Format profile              : Main@L4
Format settings, CABAC      : Yes
Format settings, RefFrames  : 1 frame
Format settings, GOP        : M=1, N=100
Codec ID                    : avc1
Codec ID/Info               : Advanced Video Coding
Duration                    : 2 h 1 min
Bit rate mode               : Constant
Bit rate                    : 4 500 kb/s
Maximum bit rate            : 11.2 Mb/s
Width                       : 1 920 pixels
Height                      : 1 080 pixels
Display aspect ratio        : 16:9
Frame rate mode             : Constant
Frame rate                  : 25.000 FPS
Color space                 : YUV
Chroma subsampling          : 4:2:0
Bit depth                   : 8 bits
Scan type                   : Progressive
Bits/(Pixel*Frame)          : 0.087
Stream size                 : 3.81 GiB (99%)
Language                    : English
Tagged date                 : UTC 2018-11-04 14:04:36

Audio
ID                          : 2
Format                      : AAC
Format/Info                 : Advanced Audio Codec
Format profile              : LC
Codec ID                    : 40
Duration                    : 2 h 1 min
Bit rate mode               : Variable
Bit rate                    : 61.4 kb/s
Maximum bit rate            : 65.3 kb/s
Channel(s)                  : 2 channels
Channel positions           : Front: L R
Sampling rate               : 48.0 kHz
Frame rate                  : 46.875 FPS (1024 SPF)
Compression mode            : Lossy
Stream size                 : 53.3 MiB (1%)
Language                    : English
Default                     : Yes
Alternate group             : 1
Encoded date                : UTC 2018-11-04 14:04:33
Tagged date                 : UTC 2018-11-04 14:04:36






SINGLE DIRECT FAST LINKS
http://www.heroupload.us/4ffd5486b30284ed/Street.Lights.2018.Malayalam.Proper.WEB-HD.1080p.AVC.AAC-TMV.mp4


http://filefloater.com/V6x/Street.Lights.2018.Malayalam.Proper.WEB-HD.1080p.AVC.AAC-TMV.mp4

1GB LINKS

http://www.heroupload.us/f98f3e8c8993e6fb/Street.Lights.2018.Malayalam.Proper.WEB-HD.1080p.AVC.AAC-TMV.part1.rar
http://www.heroupload.us/552eb9468b2b337d/Street.Lights.2018.Malayalam.Proper.WEB-HD.1080p.AVC.AAC-TMV.part2.rar
http://www.heroupload.us/21df62e262273fb1/Street.Lights.2018.Malayalam.Proper.WEB-HD.1080p.AVC.AAC-TMV.part3.rar
http://www.heroupload.us/613b24e09dd06cf5/Street.Lights.2018.Malayalam.Proper.WEB-HD.1080p.AVC.AAC-TMV.part4.rar
http://www.heroupload.us/25e5195df2a8c589/Street.Lights.2018.Malayalam.Proper.WEB-HD.1080p.AVC.AAC-TMV.srt



http://filefloater.com/V6y/Street.Lights.2018.Malayalam.Proper.WEB-HD.1080p.AVC.AAC-TMV.part1.rar
http://filefloater.com/V6z/Street.Lights.2018.Malayalam.Proper.WEB-HD.1080p.AVC.AAC-TMV.part2.rar
http://filefloater.com/1L8o/Street.Lights.2018.Malayalam.Proper.WEB-HD.1080p.AVC.AAC-TMV.part3.rar
http://filefloater.com/1L8p/Street.Lights.2018.Malayalam.Proper.WEB-HD.1080p.AVC.AAC-TMV.part4.rar
http://filefloater.com/1L8q/Street.Lights.2018.Malayalam.Proper.WEB-HD.1080p.AVC.AAC-TMV.srt




Buy Premium From My Links & Support Me
шаблоны для dle 11.2