Street Lights (2018) Malayalam - 720p - WEB-HD - AVC - AAC - ESub-TMV

Street Lights (2018) Malayalam - 720p - WEB-HD - AVC - AAC - ESub-TMV





Format                      : MPEG-4
Codec ID                    : M4V  (isom/M4A /M4V /mp42)
File size                   : 1.75 GiB
Duration                    : 2 h 1 min
Overall bit rate mode       : Variable
Overall bit rate            : 2 064 kb/s
Encoded date                : UTC 2018-11-04 13:44:31
Tagged date                 : UTC 2018-11-04 13:44:31
Writing application         : MkvToMp4 [www.mkvtomp4.ru] version 0.224 (x64)

Video
ID                          : 1
Format                      : AVC
Format/Info                 : Advanced Video Codec
Format profile              : Main@L3.1
Format settings, CABAC      : Yes
Format settings, RefFrames  : 1 frame
Format settings, GOP        : M=1, N=100
Codec ID                    : avc1
Codec ID/Info               : Advanced Video Coding
Duration                    : 2 h 1 min
Bit rate mode               : Constant
Bit rate                    : 2 000 kb/s
Maximum bit rate            : 4 736 kb/s
Width                       : 1 280 pixels
Height                      : 720 pixels
Display aspect ratio        : 16:9
Frame rate mode             : Constant
Frame rate                  : 25.000 FPS
Color space                 : YUV
Chroma subsampling          : 4:2:0
Bit depth                   : 8 bits
Scan type                   : Progressive
Bits/(Pixel*Frame)          : 0.087
Stream size                 : 1.70 GiB (97%)
Language                    : English
Tagged date                 : UTC 2018-11-04 13:44:38

Audio
ID                          : 2
Format                      : AAC
Format/Info                 : Advanced Audio Codec
Format profile              : LC
Codec ID                    : 40
Duration                    : 2 h 1 min
Bit rate mode               : Variable
Bit rate                    : 61.4 kb/s
Maximum bit rate            : 65.3 kb/s
Channel(s)                  : 2 channels
Channel positions           : Front: L R
Sampling rate               : 48.0 kHz
Frame rate                  : 46.875 FPS (1024 SPF)
Compression mode            : Lossy
Stream size                 : 53.3 MiB (3%)
Language                    : English
Default                     : Yes
Alternate group             : 1
Encoded date                : UTC 2018-11-04 13:44:36
Tagged date                 : UTC 2018-11-04 13:44:38




SINGLE DIRECT FAST LINKS

http://www.heroupload.us/368dcf7103a49477/Street.Lights.2018.Malayalam.Proper.WEB-HD.720p.AVC.AAC-TMV.mp4
http://www.heroupload.us/f367ec56aa5648a6/Street.Lights.2018.Malayalam.Proper.WEB-HD.720p.AVC.AAC-TMV.srt



http://filefloater.com/V6v/Street.Lights.2018.Malayalam.Proper.WEB-HD.720p.AVC.AAC-TMV.mp4
http://filefloater.com/V6w/Street.Lights.2018.Malayalam.Proper.WEB-HD.720p.AVC.AAC-TMV.srt





Buy Premium From My Links & Support Me
шаблоны для dle 11.2