Awe! (2018) 1080p - HDTVRip - x264 [Dual Audio][Telugu+Line+Hindi-Orginal]

Awe! (2018) 1080p - HDTVRip - x264 [Dual Audio][Telugu+Line+Hindi-Orginal]





Format                      : Matroska
Format version              : Version 4 / Version 2
File size                   : 2.45 GiB
Duration                    : 1 h 46 min
Overall bit rate mode       : Variable
Overall bit rate            : 3 308 kb/s
Encoded date                : UTC 2018-11-04 05:26:50
Writing application         : mkvmerge v7.1.0 ('Good Love') 32bit built on Jul 27 2014 12:59:18
Writing library             : libebml v1.3.0 + libmatroska v1.4.1

Video
ID                          : 1
Format                      : AVC
Format/Info                 : Advanced Video Codec
Format profile              : High@L4
Format settings, CABAC      : Yes
Format settings, RefFrames  : 4 frames
Codec ID                    : V_MPEG4/ISO/AVC
Duration                    : 1 h 46 min
Bit rate                    : 3 086 kb/s
Width                       : 1 920 pixels
Height                      : 800 pixels
Display aspect ratio        : 2.40:1
Frame rate mode             : Constant
Frame rate                  : 25.000 FPS
Color space                 : YUV
Chroma subsampling          : 4:2:0
Bit depth                   : 8 bits
Scan type                   : Progressive
Bits/(Pixel*Frame)          : 0.080
Stream size                 : 2.29 GiB (93%)
Writing library             : x264 core 155 r2901 7d0ff22
Encoding settings           : cabac=1 / ref=3 / deblock=1:0:0 / analyse=0x3:0x113 / me=hex / subme=7 / psy=1 / psy_rd=1.00:0.00 / mixed_ref=1 / me_range=16 / chroma_me=1 / trellis=1 / 8x8dct=1 / cqm=0 / deadzone=21,11 / fast_pskip=1 / chroma_qp_offset=-2 / threads=25 / lookahead_threads=4 / sliced_threads=0 / nr=0 / decimate=1 / interlaced=0 / bluray_compat=0 / constrained_intra=0 / bframes=3 / b_pyramid=2 / b_adapt=1 / b_bias=0 / direct=1 / weightb=1 / open_gop=0 / weightp=2 / keyint=250 / keyint_min=25 / scenecut=40 / intra_refresh=0 / rc_lookahead=40 / rc=2pass / mbtree=1 / bitrate=3086 / ratetol=1.0 / qcomp=0.60 / qpmin=0 / qpmax=69 / qpstep=4 / cplxblur=20.0 / qblur=0.5 / ip_ratio=1.40 / aq=1:1.00
Language                    : Telugu
Default                     : Yes
Forced                      : No

Audio #1
ID                          : 2
Format                      : MPEG Audio
Format version              : Version 1
Format profile              : Layer 3
Mode                        : Joint stereo
Mode extension              : MS Stereo
Codec ID                    : A_MPEG/L3
Codec ID/Hint               : MP3
Duration                    : 1 h 46 min
Bit rate mode               : Variable
Bit rate                    : 128 kb/s
Channel(s)                  : 2 channels
Sampling rate               : 44.1 kHz
Frame rate                  : 38.281 FPS (1152 SPF)
Compression mode            : Lossy
Stream size                 : 93.5 MiB (4%)
Writing library             : LAME3.99r
Encoding settings           : -m j -V 4 -q 3 -lowpass 17 --abr 128
Language                    : Telugu
Default                     : Yes
Forced                      : No

Audio #2
ID                          : 3
Format                      : MPEG Audio
Format version              : Version 1
Format profile              : Layer 3
Mode                        : Joint stereo
Mode extension              : MS Stereo
Codec ID                    : A_MPEG/L3
Codec ID/Hint               : MP3
Duration                    : 1 h 46 min
Bit rate mode               : Variable
Bit rate                    : 96.0 kb/s
Channel(s)                  : 2 channels
Sampling rate               : 44.1 kHz
Frame rate                  : 38.281 FPS (1152 SPF)
Compression mode            : Lossy
Stream size                 : 73.2 MiB (3%)
Writing library             : LAME3.99r
Encoding settings           : -m j -V 4 -q 3 -lowpass 15.1 --abr 96
Language                    : Hindi
Default                     : No
Forced                      : No





SINGLE DIRECT FAST LINKS
http://www.heroupload.us/ae3ae62bf40a01f0/Awe.2018.HDTV.1080p.Telugu.line+Hindi-TMV.mkv


http://filefloater.com/V6q/Awe.2018.HDTV.1080p.Telugu.line+Hindi-TMV.mkv

700MB LINKS

http://www.heroupload.us/75355e18478c6d41/Awe.2018.HDTV.1080p.Telugu.line+Hindi-TMV.part1.rar
http://www.heroupload.us/e7084ca9900137cc/Awe.2018.HDTV.1080p.Telugu.line+Hindi-TMV.part2.rar
http://www.heroupload.us/caa642bf363283e0/Awe.2018.HDTV.1080p.Telugu.line+Hindi-TMV.part3.rar
http://www.heroupload.us/9ba96d842d4d08d6/Awe.2018.HDTV.1080p.Telugu.line+Hindi-TMV.part4.rar



http://filefloater.com/V6r/Awe.2018.HDTV.1080p.Telugu.line+Hindi-TMV.part1.rar
http://filefloater.com/V6s/Awe.2018.HDTV.1080p.Telugu.line+Hindi-TMV.part2.rar
http://filefloater.com/V6t/Awe.2018.HDTV.1080p.Telugu.line+Hindi-TMV.part3.rar
http://filefloater.com/V6u/Awe.2018.HDTV.1080p.Telugu.line+Hindi-TMV.part4.rar




Buy Premium From My Links & Support Me
шаблоны для dle 11.2