NOTA (2018) Telugu - 1080p - WEB-DL - AVC - DD5.1 - ESub-TMV Exclusive

NOTA (2018) Telugu - 1080p - WEB-DL - AVC - DD5.1 - ESub-TMV Exclusive






Format                      : Matroska
Format version              : Version 4 / Version 2
File size                   : 7.42 GiB
Duration                    : 2 h 24 min
Overall bit rate mode       : Variable
Overall bit rate            : 7 362 kb/s
Encoded date                : UTC 2018-11-03 11:31:04
Writing application         : mkvmerge v7.1.0 ('Good Love') 32bit built on Jul 27 2014 12:59:18
Writing library             : libebml v1.3.0 + libmatroska v1.4.1

Video
ID                          : 1
Format                      : AVC
Format/Info                 : Advanced Video Codec
Format profile              : High@L4
Format settings, CABAC      : Yes
Format settings, RefFrames  : 4 frames
Codec ID                    : V_MPEG4/ISO/AVC
Duration                    : 2 h 24 min
Bit rate mode               : Variable
Bit rate                    : 6 720 kb/s
Maximum bit rate            : 15.0 Mb/s
Width                       : 1 920 pixels
Height                      : 816 pixels
Display aspect ratio        : 2.35:1
Frame rate mode             : Constant
Frame rate                  : 24.000 FPS
Color space                 : YUV
Chroma subsampling          : 4:2:0
Bit depth                   : 8 bits
Scan type                   : Progressive
Bits/(Pixel*Frame)          : 0.179
Stream size                 : 6.77 GiB (91%)
Language                    : Telugu
Default                     : Yes
Forced                      : No
Color range                 : Limited
Color primaries             : BT.709
Transfer characteristics    : BT.709
Matrix coefficients         : BT.709

Audio
ID                          : 2
Format                      : E-AC-3
Format/Info                 : Enhanced Audio Coding 3
Format settings, Endianness : Big
Codec ID                    : A_EAC3
Duration                    : 2 h 24 min
Bit rate mode               : Constant
Bit rate                    : 640 kb/s
Channel(s)                  : 6 channels
Channel positions           : Front: L C R, Side: L R, LFE
Sampling rate               : 48.0 kHz
Frame rate                  : 187.500 FPS (256 SPF)
Compression mode            : Lossy
Stream size                 : 661 MiB (9%)
Language                    : Telugu
Service kind                : Complete Main
Default                     : Yes
Forced                      : No

Text
ID                          : 3
Format                      : UTF-8
Codec ID                    : S_TEXT/UTF8
Codec ID/Info               : UTF-8 Plain Text
Duration                    : 2 h 20 min
Bit rate                    : 84 b/s
Count of elements           : 2398
Stream size                 : 87.0 KiB (0%)
Language                    : English
Default                     : No
Forced                      : No




SINGLE DIRECT FAST LINKS

http://www.heroupload.us/e9b5f34f8ac552ac/NOTA.2018.Telugu.Proper.WEB-DL.1080p.DD5.1.ESub-TMV.mkv


1GB LINKS

http://www.heroupload.us/6d782dfb18ed1ec8/NOTA.2018.Telugu.Proper.WEB-DL.1080p.DD5.1.ESub-TMV.part1.rar
http://www.heroupload.us/7eedfff0b7dd867a/NOTA.2018.Telugu.Proper.WEB-DL.1080p.DD5.1.ESub-TMV.part2.rar
http://www.heroupload.us/54b4042ab7ec9be0/NOTA.2018.Telugu.Proper.WEB-DL.1080p.DD5.1.ESub-TMV.part3.rar
http://www.heroupload.us/65e10c117fb39f36/NOTA.2018.Telugu.Proper.WEB-DL.1080p.DD5.1.ESub-TMV.part4.rar
http://www.heroupload.us/ce0c0166be4b2a70/NOTA.2018.Telugu.Proper.WEB-DL.1080p.DD5.1.ESub-TMV.part5.rar
http://www.heroupload.us/63cb50886d4320a4/NOTA.2018.Telugu.Proper.WEB-DL.1080p.DD5.1.ESub-TMV.part6.rar
http://www.heroupload.us/6a219715550d0140/NOTA.2018.Telugu.Proper.WEB-DL.1080p.DD5.1.ESub-TMV.part7.rar
http://www.heroupload.us/8309119e8aa3645f/NOTA.2018.Telugu.Proper.WEB-DL.1080p.DD5.1.ESub-TMV.part8.rar



http://filefloater.com/V6f/NOTA.2018.Telugu.Proper.WEB-DL.1080p.DD5.1.ESub-TMV.part1.rar
http://filefloater.com/V6g/NOTA.2018.Telugu.Proper.WEB-DL.1080p.DD5.1.ESub-TMV.part2.rar
http://filefloater.com/V6h/NOTA.2018.Telugu.Proper.WEB-DL.1080p.DD5.1.ESub-TMV.part3.rar
http://filefloater.com/V6i/NOTA.2018.Telugu.Proper.WEB-DL.1080p.DD5.1.ESub-TMV.part4.rar
http://filefloater.com/V6j/NOTA.2018.Telugu.Proper.WEB-DL.1080p.DD5.1.ESub-TMV.part5.rar
http://filefloater.com/V6k/NOTA.2018.Telugu.Proper.WEB-DL.1080p.DD5.1.ESub-TMV.part6.rar
http://filefloater.com/V6l/NOTA.2018.Telugu.Proper.WEB-DL.1080p.DD5.1.ESub-TMV.part7.rar
http://filefloater.com/V6m/NOTA.2018.Telugu.Proper.WEB-DL.1080p.DD5.1.ESub-TMV.part8.rar




Buy Premium From My Links & Support Me
шаблоны для dle 11.2