Kadaikutty Singam (2018) Tamil Ultra HD 4K - Untouched - AVC - Dolby ® 5.1 - Esubs-MT

Kadaikutty Singam (2018) Tamil Ultra HD 4K - Untouched - AVC - Dolby ® 5.1 - Esubs-MT





Format                      : MPEG-4
Codec ID                    : M4V  (isom/avc1/mp42)
File size                   : 5.53 GiB
Duration                    : 2 h 21 min
Overall bit rate mode       : Variable
Overall bit rate            : 5 584 kb/s
Encoded date                : UTC 2018-08-11 16:06:35
Tagged date                 : UTC 2018-08-11 16:06:35

Video
ID                          : 1
Format                      : AVC
Format/Info                 : Advanced Video Codec
Format profile              : Main@L5.1
Format settings, CABAC      : Yes
Format settings, RefFrames  : 3 frames
Format settings, GOP        : M=3, N=90
Codec ID                    : avc1
Codec ID/Info               : Advanced Video Coding
Duration                    : 2 h 21 min
Bit rate mode               : Constant
Bit rate                    : 5 000 kb/s
Maximum bit rate            : 12.1 Mb/s
Width                       : 3 840 pixels
Height                      : 2 160 pixels
Display aspect ratio        : 16:9
Frame rate mode             : Constant
Frame rate                  : 25.000 FPS
Standard                    : PAL
Color space                 : YUV
Chroma subsampling          : 4:2:0
Bit depth                   : 8 bits
Scan type                   : Progressive
Bits/(Pixel*Frame)          : 0.024
Stream size                 : 4.96 GiB (90%)
Encoded date                : UTC 2018-08-11 16:06:35
Tagged date                 : UTC 2018-08-11 16:06:35
Color range                 : Limited
Color primaries             : BT.709
Transfer characteristics    : BT.709
Matrix coefficients         : BT.709

Audio #1
ID                          : 2
Format                      : AAC
Format/Info                 : Advanced Audio Codec
Format profile              : LC
Codec ID                    : 40
Duration                    : 2 h 21 min
Bit rate mode               : Variable
Bit rate                    : 128 kb/s
Maximum bit rate            : 133 kb/s
Channel(s)                  : 2 channels
Channel positions           : Front: L R
Sampling rate               : 48.0 kHz
Frame rate                  : 46.875 FPS (1024 SPF)
Compression mode            : Lossy
Stream size                 : 127 MiB (2%)
Encoded date                : UTC 2018-08-11 16:06:35
Tagged date                 : UTC 2018-08-11 16:06:35

Audio #2
ID                          : 3
Format                      : AC-3
Format/Info                 : Audio Coding 3
Format settings, Endianness : Big
Codec ID                    : ac-3
Duration                    : 2 h 21 min
Bit rate mode               : Constant
Bit rate                    : 448 kb/s
Channel(s)                  : 6 channels
Channel positions           : Front: L C R, Side: L R, LFE
Sampling rate               : 48.0 kHz
Frame rate                  : 31.250 FPS (1536 SPF)
Bit depth                   : 16 bits
Compression mode            : Lossy
Stream size                 : 455 MiB (8%)
Service kind                : Complete Main
Encoded date                : UTC 2018-08-11 16:06:35
Tagged date                 : UTC 2018-08-11 16:06:35






SINGLE DIRECT FAST LINKS

http://www.heroupload.us/d845d4e532ce5c81/Kadaikutty.Singam.2018.4K.Untouched.UHD.MP4.ESubs.Tamil-MTR.mp4


1GB LINKS

http://www.heroupload.us/f403672c44cdc95e/Kadaikutty.Singam.2018.4K.Untouched.UHD.MP4.ESubs.Tamil-MTR.part1.rar
http://www.heroupload.us/d6ec1e07049f8643/Kadaikutty.Singam.2018.4K.Untouched.UHD.MP4.ESubs.Tamil-MTR.part2.rar
http://www.heroupload.us/305b52ad2ea3c311/Kadaikutty.Singam.2018.4K.Untouched.UHD.MP4.ESubs.Tamil-MTR.part3.rar
http://www.heroupload.us/b657941c36372e46/Kadaikutty.Singam.2018.4K.Untouched.UHD.MP4.ESubs.Tamil-MTR.part4.rar
http://www.heroupload.us/42da6bec37ed183a/Kadaikutty.Singam.2018.4K.Untouched.UHD.MP4.ESubs.Tamil-MTR.part5.rar
http://www.heroupload.us/7409d30fccbde7bf/Kadaikutty.Singam.2018.4K.Untouched.UHD.MP4.ESubs.Tamil-MTR.part6.rar
http://www.heroupload.us/a23fd6c80131f0ae/Kadaikutty.Singam.2018.4K.Untouched.UHD.MP4.ESubs.Tamil-MTR.srt



http://filefloater.com/1Kgp/Kadaikutty.Singam.2018.4K.Untouched.UHD.MP4.ESubs.Tamil-MTR.part1.rar
http://filefloater.com/1kfw/Kadaikutty.Singam.2018.4K.Untouched.UHD.MP4.ESubs.Tamil-MTR.part2.rar
http://filefloater.com/1kfx/Kadaikutty.Singam.2018.4K.Untouched.UHD.MP4.ESubs.Tamil-MTR.part3.rar
http://filefloater.com/1kfy/Kadaikutty.Singam.2018.4K.Untouched.UHD.MP4.ESubs.Tamil-MTR.part4.rar
http://filefloater.com/1Kgt/Kadaikutty.Singam.2018.4K.Untouched.UHD.MP4.ESubs.Tamil-MTR.part5.rar
http://filefloater.com/1Kgu/Kadaikutty.Singam.2018.4K.Untouched.UHD.MP4.ESubs.Tamil-MTR.part6.rar
http://filefloater.com/1Kgv/Kadaikutty.Singam.2018.4K.Untouched.UHD.MP4.ESubs.Tamil-MTR.srt


Buy Premium From My Links & Support Me
шаблоны для dle 11.2