Irumbu Thirai (2018) Tamil Ultra HD 4K - Untouched - AVC - Dolby ® 5.1 - Esubs-MTR

Irumbu Thirai (2018) Tamil Ultra HD 4K - Untouched - AVC - Dolby ® 5.1 - Esubs-MTR




General
Format                      : MPEG-4
Codec ID                    : M4V  (isom/avc1/mp42)
File size                   : 6.32 GiB
Duration                    : 2 h 40 min
Overall bit rate mode       : Variable
Overall bit rate            : 5 647 kb/s
Encoded date                : UTC 2018-06-26 12:10:14
Tagged date                 : UTC 2018-06-26 12:10:14

Video
ID                          : 1
Format                      : AVC
Format/Info                 : Advanced Video Codec
Format profile              : Main@L5.1
Format settings, CABAC      : Yes
Format settings, RefFrames  : 3 frames
Format settings, GOP        : M=3, N=90
Codec ID                    : avc1
Codec ID/Info               : Advanced Video Coding
Duration                    : 2 h 40 min
Bit rate mode               : Constant
Bit rate                    : 5 000 kb/s
Maximum bit rate            : 12.4 Mb/s
Width                       : 3 840 pixels
Height                      : 2 160 pixels
Display aspect ratio        : 16:9
Frame rate mode             : Constant
Frame rate                  : 24.000 FPS
Color space                 : YUV
Chroma subsampling          : 4:2:0
Bit depth                   : 8 bits
Scan type                   : Progressive
Bits/(Pixel*Frame)          : 0.025
Stream size                 : 5.59 GiB (89%)
Encoded date                : UTC 2018-06-26 12:10:14
Tagged date                 : UTC 2018-06-26 12:10:14
Color range                 : Limited
Color primaries             : BT.709
Transfer characteristics    : BT.709
Matrix coefficients         : BT.709

Audio #1
ID                          : 2
Format                      : AAC
Format/Info                 : Advanced Audio Codec
Format profile              : LC
Codec ID                    : 40
Duration                    : 2 h 40 min
Bit rate mode               : Variable
Bit rate                    : 128 kb/s
Maximum bit rate            : 132 kb/s
Channel(s)                  : 2 channels
Channel positions           : Front: L R
Sampling rate               : 48.0 kHz
Frame rate                  : 46.875 FPS (1024 SPF)
Compression mode            : Lossy
Stream size                 : 144 MiB (2%)
Language                    : English
Encoded date                : UTC 2018-06-26 12:10:14
Tagged date                 : UTC 2018-06-26 12:10:14

Audio #2
ID                          : 3
Format                      : AC-3
Format/Info                 : Audio Coding 3
Format settings, Endianness : Big
Codec ID                    : ac-3
Duration                    : 2 h 40 min
Bit rate mode               : Constant
Bit rate                    : 512 kb/s
Channel(s)                  : 6 channels
Channel positions           : Front: L C R, Side: L R, LFE
Sampling rate               : 48.0 kHz
Frame rate                  : 31.250 FPS (1536 SPF)
Bit depth                   : 16 bits
Compression mode            : Lossy
Stream size                 : 586 MiB (9%)
Language                    : English
Service kind                : Complete Main
Encoded date                : UTC 2018-06-26 12:10:14
Tagged date                 : UTC 2018-06-26 12:10:14





SINGLE DIRECT FAST LINKS

http://www.heroupload.us/529bb8deb18ffdb9/Irumbu.Thirai.2018.4K.Untouched.UHD.MP4.ESubs.Tamil-MTR.mp4


1GB LINKS

http://www.heroupload.us/24fdae10e1bf4810/Irumbu.Thirai.2018.4K.Untouched.UHD.MP4.ESubs.Tamil-MTR.part1.rar
http://www.heroupload.us/f428a7c17c627dcc/Irumbu.Thirai.2018.4K.Untouched.UHD.MP4.ESubs.Tamil-MTR.part2.rar
http://www.heroupload.us/98c9efdb7f906639/Irumbu.Thirai.2018.4K.Untouched.UHD.MP4.ESubs.Tamil-MTR.part3.rar
http://www.heroupload.us/25acb4aab755b027/Irumbu.Thirai.2018.4K.Untouched.UHD.MP4.ESubs.Tamil-MTR.part4.rar
http://www.heroupload.us/8182f0360f8ac737/Irumbu.Thirai.2018.4K.Untouched.UHD.MP4.ESubs.Tamil-MTR.part5.rar
http://www.heroupload.us/bbf8affdc950f2f1/Irumbu.Thirai.2018.4K.Untouched.UHD.MP4.ESubs.Tamil-MTR.part6.rar
http://www.heroupload.us/61fcafbf7518379f/Irumbu.Thirai.2018.4K.Untouched.UHD.MP4.ESubs.Tamil-MTR.part7.rar
http://www.heroupload.us/5cd5072214147f12/Irumbu.Thirai.2018.4K.Untouched.UHD.MP4.ESubs.Tamil-MTR.srt


http://filefloater.com/Txo/Irumbu.Thirai.2018.4K.Untouched.UHD.MP4.ESubs.Tamil-MTR.part1.rar
http://filefloater.com/Txn/Irumbu.Thirai.2018.4K.Untouched.UHD.MP4.ESubs.Tamil-MTR.part2.rar
http://filefloater.com/Txm/Irumbu.Thirai.2018.4K.Untouched.UHD.MP4.ESubs.Tamil-MTR.part3.rar
http://filefloater.com/Txl/Irumbu.Thirai.2018.4K.Untouched.UHD.MP4.ESubs.Tamil-MTR.part4.rar
http://filefloater.com/Txk/Irumbu.Thirai.2018.4K.Untouched.UHD.MP4.ESubs.Tamil-MTR.part5.rar
http://filefloater.com/Txj/Irumbu.Thirai.2018.4K.Untouched.UHD.MP4.ESubs.Tamil-MTR.part6.rar
http://filefloater.com/Txi/Irumbu.Thirai.2018.4K.Untouched.UHD.MP4.ESubs.Tamil-MTR.part7.rar
http://filefloater.com/Txh/Irumbu.Thirai.2018.4K.Untouched.UHD.MP4.ESubs.Tamil-MTR.srt

шаблоны для dle 11.2