Nadigaiyar Thilagam (2018) Tamil - 1080p - WEB-HD - AVC - AAC-MTR

Nadigaiyar Thilagam (2018) Tamil - 1080p - WEB-HD - AVC - AAC-MTR





General
Format                      : MPEG-4
Format profile              : Base Media
Codec ID                    : isom (isom/iso2/avc1/mp41)
File size                   : 5.22 GiB
Duration                    : 2 h 55 min
Overall bit rate mode       : Variable
Overall bit rate            : 4 270 kb/s
Writing application         : Lavf57.41.100

Video
ID                          : 1
Format                      : AVC
Format/Info                 : Advanced Video Codec
Format profile              : High@L4.1
Format settings, CABAC      : Yes
Format settings, RefFrames  : 4 frames
Codec ID                    : avc1
Codec ID/Info               : Advanced Video Coding
Duration                    : 2 h 55 min
Bit rate                    : 4 140 kb/s
Nominal bit rate            : 5 000 kb/s
Width                       : 1 920 pixels
Height                      : 1 080 pixels
Display aspect ratio        : 16:9
Frame rate mode             : Constant
Frame rate                  : 25.000 FPS
Color space                 : YUV
Chroma subsampling          : 4:2:0
Bit depth                   : 8 bits
Scan type                   : Progressive
Bits/(Pixel*Frame)          : 0.080
Stream size                 : 5.07 GiB (97%)
Writing library             : x264 core 148 r2694 3b70645
Encoding settings           : cabac=1 / ref=3 / deblock=1:0:0 / analyse=0x3:0x113 / me=hex / subme=7 / psy=1 / psy_rd=1.00:0.00 / mixed_ref=1 / me_range=16 / chroma_me=1 / trellis=1 / 8x8dct=1 / cqm=0 / deadzone=21,11 / fast_pskip=1 / chroma_qp_offset=-2 / threads=34 / lookahead_threads=5 / sliced_threads=0 / nr=0 / decimate=1 / interlaced=0 / bluray_compat=0 / constrained_intra=0 / bframes=3 / b_pyramid=2 / b_adapt=1 / b_bias=0 / direct=1 / weightb=1 / open_gop=0 / weightp=2 / keyint=50 / keyint_min=26 / scenecut=0 / intra_refresh=0 / rc_lookahead=40 / rc=cbr / mbtree=1 / bitrate=5000 / ratetol=1.0 / qcomp=0.60 / qpmin=0 / qpmax=69 / qpstep=4 / vbv_maxrate=5000 / vbv_bufsize=5000 / nal_hrd=none / filler=0 / ip_ratio=1.40 / aq=1:1.00
Language                    : English
Tagged date                 : UTC 2018-06-20 18:03:25

Audio
ID                          : 2
Format                      : AAC
Format/Info                 : Advanced Audio Codec
Format profile              : LC
Codec ID                    : 40
Duration                    : 2 h 55 min
Source duration             : 2 h 55 min
Source_Duration_LastFrame   : -18 ms
Bit rate mode               : Variable
Bit rate                    : 126 kb/s
Maximum bit rate            : 128 kb/s
Channel(s)                  : 2 channels
Channel positions           : Front: L R
Sampling rate               : 48.0 kHz
Frame rate                  : 46.875 FPS (1024 SPF)
Compression mode            : Lossy
Stream size                 : 158 MiB (3%)
Source stream size          : 158 MiB (3%)
Language                    : English
Default                     : Yes
Alternate group             : 1
Tagged date                 : UTC 2018-06-20 18:03:25






SINGLE DIRECT FAST LINKS

http://www.heroupload.us/e936a5e93215d0ec/Nadigaiyar.Thilagam.2018.Tamil.Original.1080p.HD.AVC.MP4-MTR.mp4


1GB LINKS

http://www.heroupload.us/239ebbea565758f2/Nadigaiyar.Thilagam.2018.Tamil.Original.1080p.HD.AVC.MP4-MTR.part1.rar
http://www.heroupload.us/67a48e56b3b6dafe/Nadigaiyar.Thilagam.2018.Tamil.Original.1080p.HD.AVC.MP4-MTR.part2.rar
http://www.heroupload.us/d564e28065f6a72d/Nadigaiyar.Thilagam.2018.Tamil.Original.1080p.HD.AVC.MP4-MTR.part3.rar
http://www.heroupload.us/3e5aa504915996ed/Nadigaiyar.Thilagam.2018.Tamil.Original.1080p.HD.AVC.MP4-MTR.part4.rar
http://www.heroupload.us/49bfd6fb020d1aba/Nadigaiyar.Thilagam.2018.Tamil.Original.1080p.HD.AVC.MP4-MTR.part5.rar
http://www.heroupload.us/81255a624dddda76/Nadigaiyar.Thilagam.2018.Tamil.Original.1080p.HD.AVC.MP4-MTR.part6.rar



http://filefloater.com/1juJ/Nadigaiyar.Thilagam.2018.Tamil.Original.1080p.HD.AVC.MP4-MTR.part1.rar
http://filefloater.com/1juI/Nadigaiyar.Thilagam.2018.Tamil.Original.1080p.HD.AVC.MP4-MTR.part2.rar
http://filefloater.com/1juH/Nadigaiyar.Thilagam.2018.Tamil.Original.1080p.HD.AVC.MP4-MTR.part3.rar
http://filefloater.com/1juG/Nadigaiyar.Thilagam.2018.Tamil.Original.1080p.HD.AVC.MP4-MTR.part4.rar
http://filefloater.com/1juF/Nadigaiyar.Thilagam.2018.Tamil.Original.1080p.HD.AVC.MP4-MTR.part5.rar
http://filefloater.com/1juE/Nadigaiyar.Thilagam.2018.Tamil.Original.1080p.HD.AVC.MP4-MTR.part6.rar

шаблоны для dle 11.2