Kaala (2018) Tamil - 1080p - PreDVDRip - x264 - MP3-MTR

Kaala (2018) Tamil - 1080p - PreDVDRip - x264 - MP3-MTR




General
Format                      : Matroska
Format version              : Version 4 / Version 2
File size                   : 2.52 GiB
Duration                    : 2 h 33 min
Overall bit rate            : 2 355 kb/s
Encoded date                : UTC 2018-06-07 13:30:46
Writing application         : mkvmerge v7.8.0 ('River Man') 64bit built on Mar 27 2015 16:31:37
Writing library             : libebml v1.3.1 + libmatroska v1.4.2

Video
ID                          : 1
Format                      : AVC
Format/Info                 : Advanced Video Codec
Format profile              : High@L4
Format settings, CABAC      : Yes
Format settings, RefFrames  : 4 frames
Codec ID                    : V_MPEG4/ISO/AVC
Duration                    : 2 h 33 min
Bit rate                    : 2 252 kb/s
Width                       : 1 920 pixels
Height                      : 816 pixels
Display aspect ratio        : 2.35:1
Frame rate mode             : Constant
Frame rate                  : 30.000 FPS
Color space                 : YUV
Chroma subsampling          : 4:2:0
Bit depth                   : 8 bits
Scan type                   : Progressive
Bits/(Pixel*Frame)          : 0.048
Stream size                 : 2.41 GiB (96%)
Writing library             : x264 core 148 r2744 b97ae06
Encoding settings           : cabac=1 / ref=3 / deblock=1:0:0 / analyse=0x3:0x113 / me=hex / subme=7 / psy=1 / psy_rd=1.00:0.00 / mixed_ref=1 / me_range=16 / chroma_me=1 / trellis=1 / 8x8dct=1 / cqm=0 / deadzone=21,11 / fast_pskip=1 / chroma_qp_offset=-2 / threads=25 / lookahead_threads=4 / sliced_threads=0 / nr=0 / decimate=1 / interlaced=0 / bluray_compat=0 / constrained_intra=0 / bframes=3 / b_pyramid=2 / b_adapt=1 / b_bias=0 / direct=1 / weightb=1 / open_gop=0 / weightp=2 / keyint=300 / keyint_min=30 / scenecut=40 / intra_refresh=0 / rc_lookahead=40 / rc=abr / mbtree=1 / bitrate=2252 / ratetol=1.0 / qcomp=0.60 / qpmin=0 / qpmax=69 / qpstep=4 / ip_ratio=1.40 / aq=1:1.00
Language                    : English
Default                     : Yes
Forced                      : No

Audio
ID                          : 2
Format                      : MPEG Audio
Format version              : Version 1
Format profile              : Layer 3
Mode                        : Joint stereo
Codec ID                    : A_MPEG/L3
Codec ID/Hint               : MP3
Duration                    : 2 h 33 min
Bit rate mode               : Constant
Bit rate                    : 96.0 kb/s
Channel(s)                  : 2 channels
Sampling rate               : 48.0 kHz
Frame rate                  : 41.667 FPS (1152 SPF)
Compression mode            : Lossy
Stream size                 : 105 MiB (4%)
Language                    : English
Default                     : Yes
Forced                      : No






SINGLE DIRECT FAST LINKS
http://www.heroupload.us/dbfd721851d9abee/Kaala.2018.Tamil.1080p.HQ.PreDVDRip.x264-MTR.mkv


http://filefloater.com/1jmu/Kaala.2018.Tamil.1080p.HQ.PreDVDRip.x264-MTR.mkv

700MB LINKS


http://www.heroupload.us/4682389bc3b362a0/Kaala.2018.Tamil.1080p.HQ.PreDVDRip.x264-MTR.part1.rar
http://www.heroupload.us/53f93a3207fea259/Kaala.2018.Tamil.1080p.HQ.PreDVDRip.x264-MTR.part2.rar
http://www.heroupload.us/f0e840edd100cca8/Kaala.2018.Tamil.1080p.HQ.PreDVDRip.x264-MTR.part3.rar
http://www.heroupload.us/681c6a8f4f67bf51/Kaala.2018.Tamil.1080p.HQ.PreDVDRip.x264-MTR.part4.rar



http://filefloater.com/1jmv/Kaala.2018.Tamil.1080p.HQ.PreDVDRip.x264-MTR.part1.rar
http://filefloater.com/1jmw/Kaala.2018.Tamil.1080p.HQ.PreDVDRip.x264-MTR.part2.rar
http://filefloater.com/1jmx/Kaala.2018.Tamil.1080p.HQ.PreDVDRip.x264-MTR.part3.rar
http://filefloater.com/1jmy/Kaala.2018.Tamil.1080p.HQ.PreDVDRip.x264-MTR.part4.rar



шаблоны для dle 11.2