Khakee The Real Police - Thoongavanam (2018) Hindi - 1080p - WEB-HD - AVC - AAC-RG

Khakee The Real Police - Thoongavanam (2018) Hindi - 1080p - WEB-HD - AVC - AAC-RG






Format                      : MPEG-4
Format profile              : Base Media
Codec ID                    : isom (isom/iso2/avc1/mp41)
File size                   : 2.26 GiB
Duration                    : 1 h 55 min
Overall bit rate            : 2 806 kb/s
Writing application         : Lavf58.9.100

Video
ID                          : 1
Format                      : AVC
Format/Info                 : Advanced Video Codec
Format profile              : High@L4
Format settings, CABAC      : Yes
Format settings, RefFrames  : 2 frames
Codec ID                    : avc1
Codec ID/Info               : Advanced Video Coding
Duration                    : 1 h 55 min
Bit rate                    : 2 673 kb/s
Width                       : 1 920 pixels
Height                      : 1 080 pixels
Display aspect ratio        : 16:9
Frame rate mode             : Constant
Frame rate                  : 30.000 FPS
Color space                 : YUV
Chroma subsampling          : 4:2:0
Bit depth                   : 8 bits
Scan type                   : Progressive
Bits/(Pixel*Frame)          : 0.043
Stream size                 : 2.15 GiB (95%)
Color range                 : Limited
Color primaries             : BT.709
Transfer characteristics    : BT.709
Matrix coefficients         : BT.709

Audio
ID                          : 2
Format                      : AAC
Format/Info                 : Advanced Audio Codec
Format profile              : LC
Codec ID                    : 40
Duration                    : 1 h 55 min
Bit rate mode               : Constant
Bit rate                    : 126 kb/s
Channel(s)                  : 2 channels
Channel positions           : Front: L R
Sampling rate               : 44.1 kHz
Frame rate                  : 43.066 FPS (1024 SPF)
Compression mode            : Lossy
Stream size                 : 104 MiB (4%)
Default                     : Yes
Alternate group             : 1





SINGLE DIRECT FAST LINKS
http://www.heroupload.us/a628fad2000cdc55/KHAKEE.The.Real.Police-Thoongavanam.2018.Hindi.1080p.WEB-HD.AVC.AAC-RG.Entertainment.mp4


http://filefloater.com/1Kms/KHAKEE.The.Real.Police-Thoongavanam.2018.Hindi.1080p.WEB-HD.AVC.AAC-RG.Entertainment.mp4

700MB LINKS


http://www.heroupload.us/abe7449f5aa854d5/KHAKEE.The.Real.Police-Thoongavanam.2018.Hindi.1080p.WEB-HD.AVC.AAC-RG.Entertainment.part1.rar
http://www.heroupload.us/4463ef297d7b523c/KHAKEE.The.Real.Police-Thoongavanam.2018.Hindi.1080p.WEB-HD.AVC.AAC-RG.Entertainment.part2.rar
http://www.heroupload.us/95896e8674c28685/KHAKEE.The.Real.Police-Thoongavanam.2018.Hindi.1080p.WEB-HD.AVC.AAC-RG.Entertainment.part3.rar
http://www.heroupload.us/b4325a35046e28d3/KHAKEE.The.Real.Police-Thoongavanam.2018.Hindi.1080p.WEB-HD.AVC.AAC-RG.Entertainment.part4.rar



http://filefloater.com/1Kmt/KHAKEE.The.Real.Police-Thoongavanam.2018.Hindi.1080p.WEB-HD.AVC.AAC-RG.Entertainment.part1.rar
http://filefloater.com/1klA/KHAKEE.The.Real.Police-Thoongavanam.2018.Hindi.1080p.WEB-HD.AVC.AAC-RG.Entertainment.part2.rar
http://filefloater.com/1klB/KHAKEE.The.Real.Police-Thoongavanam.2018.Hindi.1080p.WEB-HD.AVC.AAC-RG.Entertainment.part3.rar
http://filefloater.com/1klC/KHAKEE.The.Real.Police-Thoongavanam.2018.Hindi.1080p.WEB-HD.AVC.AAC-RG.Entertainment.part4.rar


Buy Premium From My Links & Support Me
шаблоны для dle 11.2