Aa Karala Ratri (2018) Kannada - 720p - WEB-HD - AVC - AAC-TMV

Aa Karala Ratri (2018) Kannada - 720p - WEB-HD - AVC - AAC-TMV





Format                      : MPEG-4
Format profile              : Base Media
Codec ID                    : isom (isom/iso2/avc1/mp41)
File size                   : 1.44 GiB
Duration                    : 1 h 39 min
Overall bit rate mode       : Variable
Overall bit rate            : 2 066 kb/s
Writing application         : Lavf58.13.100

Video
ID                          : 1
Format                      : AVC
Format/Info                 : Advanced Video Codec
Format profile              : Baseline@L3.1
Format settings, CABAC      : No
Format settings, RefFrames  : 5 frames
Format settings, GOP        : M=1, N=50
Codec ID                    : avc1
Codec ID/Info               : Advanced Video Coding
Duration                    : 1 h 39 min
Bit rate mode               : Constant
Bit rate                    : 2 000 kb/s
Width                       : 1 280 pixels
Height                      : 720 pixels
Display aspect ratio        : 16:9
Frame rate mode             : Constant
Frame rate                  : 25.000 FPS
Color space                 : YUV
Chroma subsampling          : 4:2:0
Bit depth                   : 8 bits
Scan type                   : Progressive
Bits/(Pixel*Frame)          : 0.087
Stream size                 : 1.39 GiB (97%)

Audio
ID                          : 2
Format                      : AAC
Format/Info                 : Advanced Audio Codec
Format profile              : LC
Codec ID                    : 40
Duration                    : 1 h 39 min
Bit rate mode               : Variable
Bit rate                    : 61.4 kb/s
Maximum bit rate            : 64.1 kb/s
Channel(s)                  : 2 channels
Channel positions           : Front: L R
Sampling rate               : 48.0 kHz
Frame rate                  : 46.875 FPS (1024 SPF)
Compression mode            : Lossy
Stream size                 : 43.7 MiB (3%)
Default                     : Yes
Alternate group             : 1



SINGLE DIRECT FAST LINKS

http://www.heroupload.us/61171532d43ec0e7/Aa.Karala.Ratri.2018.Kannada.WEB-HD.720p.AVC.AAC-TMV.mp4



http://filefloater.com/2AQl/Aa.Karala.Ratri.2018.Kannada.WEB-HD.720p.AVC.AAC-TMV.mp4


Buy Premium From My Links & Support Me
шаблоны для dle 11.2