Sajjan Singh Rangroot (2018) Punjabi - 720p - WEB-DL - AVC - AAC-Team Jio Exclusive

Sajjan Singh Rangroot (2018) Punjabi - 720p - WEB-DL - AVC - AAC-Team Jio Exclusive





General
Format                      : MPEG-4
Format profile              : Base Media
Codec ID                    : isom (isom/iso2/avc1/mp41)
File size                   : 842 MiB
Duration                    : 2 h 22 min
Overall bit rate            : 827 kb/s
Writing application         : Lavf57.71.100

Video
ID                          : 2
Format                      : AVC
Format/Info                 : Advanced Video Codec
Format profile              : Baseline@L3.1
Format settings, CABAC      : No
Format settings, RefFrames  : 3 frames
Codec ID                    : avc1
Codec ID/Info               : Advanced Video Coding
Duration                    : 2 h 22 min
Bit rate                    : 700 kb/s
Width                       : 1 280 pixels
Height                      : 720 pixels
Display aspect ratio        : 16:9
Frame rate mode             : Constant
Frame rate                  : 24.000 FPS
Color space                 : YUV
Chroma subsampling          : 4:2:0
Bit depth                   : 8 bits
Scan type                   : Progressive
Bits/(Pixel*Frame)          : 0.032
Stream size                 : 707 MiB (84%)
Writing library             : x264 core 148
Encoding settings           : cabac=0 / ref=3 / deblock=1:0:0 / analyse=0x1:0x111 / me=hex / subme=7 / psy=1 / psy_rd=1.00:0.00 / mixed_ref=1 / me_range=16 / chroma_me=1 / trellis=1 / 8x8dct=0 / cqm=0 / deadzone=21,11 / fast_pskip=1 / chroma_qp_offset=-2 / threads=22 / lookahead_threads=3 / sliced_threads=0 / nr=0 / decimate=1 / interlaced=0 / bluray_compat=0 / constrained_intra=0 / bframes=0 / weightp=0 / keyint=90 / keyint_min=9 / scenecut=40 / intra_refresh=0 / rc_lookahead=40 / rc=cbr / mbtree=1 / bitrate=700 / ratetol=1.0 / qcomp=0.60 / qpmin=0 / qpmax=69 / qpstep=4 / vbv_maxrate=700 / vbv_bufsize=7000 / nal_hrd=none / filler=0 / ip_ratio=1.40 / aq=1:1.00
Language                    : English
Color range                 : Limited
Color primaries             : BT.709
Transfer characteristics    : BT.709
Matrix coefficients         : BT.709

Audio
ID                          : 1
Format                      : AAC
Format/Info                 : Advanced Audio Codec
Format profile              : LC
Codec ID                    : 40
Duration                    : 2 h 22 min
Duration_LastFrame          : -16 ms
Bit rate mode               : Constant
Bit rate                    : 128 kb/s
Channel(s)                  : 2 channels
Channel positions           : Front: L R
Sampling rate               : 44.1 kHz
Frame rate                  : 43.066 FPS (1024 SPF)
Compression mode            : Lossy
Stream size                 : 130 MiB (15%)
Language                    : English
Default                     : Yes
Alternate group             : 1





http://www.heroupload.us/0248174cac42a5a1/Sajjan.Singh.Rangroot.Punjabi.2018.720p.WEBDL.Rip.AVC.H264.AAC.2.0-Team.Jio.Exclusive.mp4


http://filefloater.com/2zEu/Sajjan.Singh.Rangroot.Punjabi.2018.720p.WEBDL.Rip.AVC.H264.AAC.2.0-Team.Jio.Exclusive.mp4


Buy Premium From My Links & Support Me
шаблоны для dle 11.2