Aadmi Khilona Hai (1993) 480p - HD-DVDRip - AVC - AAC-Bollywooda2z

Aadmi Khilona Hai (1993) 480p - HD-DVDRip - AVC - AAC-Bollywooda2z



General
Complete name               : E:\Download C 2\1993\Aadmi.Khilona.Hai.mp4
Format                      : MPEG-4
Format profile              : Base Media
Codec ID                    : isom (isom)
File size                   : 1.57 GiB
Duration                    : 2 h 44 min
Overall bit rate mode       : Variable
Overall bit rate            : 1 368 kb/s
Encoded date                : UTC 2013-03-21 23:02:23
Tagged date                 : UTC 2013-03-21 23:02:23

Video
ID                          : 1
Format                      : AVC
Format/Info                 : Advanced Video Codec
Format profile              : High@L3.1
Format settings, CABAC      : Yes
Format settings, RefFrames  : 8 frames
Codec ID                    : avc1
Codec ID/Info               : Advanced Video Coding
Duration                    : 2 h 44 min
Bit rate                    : 1 300 kb/s
Maximum bit rate            : 5 249 kb/s
Width                       : 704 pixels
Height                      : 420 pixels
Display aspect ratio        : 1.85:1
Original display aspect rat : 1.85:1
Frame rate mode             : Constant
Frame rate                  : 23.976 (24000/1001) FPS
Color space                 : YUV
Chroma subsampling          : 4:2:0
Bit depth                   : 8 bits
Scan type                   : Progressive
Bits/(Pixel*Frame)          : 0.183
Stream size                 : 1.49 GiB (95%)
Writing library             : x264 core 129 r2245 bc13772
Encoding settings           : cabac=1 / ref=8 / deblock=1:-1:-1 / analyse=0x3:0x133 / me=umh / subme=9 / psy=1 / psy_rd=1.00:0.15 / mixed_ref=1 / me_range=16 / chroma_me=1 / trellis=2 / 8x8dct=1 / cqm=0 / deadzone=21,11 / fast_pskip=1 / chroma_qp_offset=-3 / threads=48 / lookahead_threads=6 / sliced_threads=0 / nr=0 / decimate=1 / interlaced=0 / bluray_compat=0 / constrained_intra=0 / bframes=3 / b_pyramid=2 / b_adapt=2 / b_bias=0 / direct=3 / weightb=1 / open_gop=0 / weightp=2 / keyint=240 / keyint_min=23 / scenecut=40 / intra_refresh=0 / rc_lookahead=60 / rc=2pass / mbtree=1 / bitrate=1300 / ratetol=1.0 / qcomp=0.60 / qpmin=0 / qpmax=69 / qpstep=4 / cplxblur=20.0 / qblur=0.5 / vbv_maxrate=4000 / vbv_bufsize=4000 / nal_hrd=none / ip_ratio=1.40 / aq=1:1.00
Encoded date                : UTC 2013-03-20 15:28:36
Tagged date                 : UTC 2013-03-21 23:03:46

Audio
ID                          : 2
Format                      : AAC
Format/Info                 : Advanced Audio Codec
Format profile              : LC
Codec ID                    : 40
Duration                    : 2 h 44 min
Bit rate mode               : Variable
Bit rate                    : 64.0 kb/s
Maximum bit rate            : 75.1 kb/s
Channel(s)                  : 2 channels
Channel positions           : Front: L R
Sampling rate               : 48.0 kHz
Frame rate                  : 46.875 FPS (1024 SPF)
Compression mode            : Lossy
Stream size                 : 75.4 MiB (5%)
Language                    : Hindi
Encoded date                : UTC 2013-03-12 17:19:57
Tagged date                 : UTC 2013-03-21 23:03:46





SINGLE DIRECT FAST LINKS
http://www.heroupload.us/e75420a338dad7dd/Aadmi.Khilona.Hai.mp4



http://filefloater.com/1kkO/Aadmi.Khilona.Hai.mp4


Buy Premium From My Links & Support Me
шаблоны для dle 11.2