Ant-Man 2 (2018) 1080p BluRay x264 DD5.1 [Original Multi Audios][Hindi+Telu+Tam+Eng]

Ant-Man 2 (2018) 1080p BluRay x264 DD5.1 [Original Multi Audios][Hindi+Telu+Tam+Eng]





Format                      : Matroska
Format version              : Version 4 / Version 2
File size                   : 2.68 GiB
Duration                    : 1 h 58 min
Overall bit rate mode       : Variable
Overall bit rate            : 3 248 kb/s
Encoded date                : UTC 2018-10-05 09:39:08
Writing application         : mkvmerge v7.1.0 ('Good Love') 32bit built on Jul 27 2014 12:59:18
Writing library             : libebml v1.3.0 + libmatroska v1.4.1

Video
ID                          : 1
Format                      : AVC
Format/Info                 : Advanced Video Codec
Format profile              : High@L4
Format settings, CABAC      : Yes
Format settings, RefFrames  : 4 frames
Codec ID                    : V_MPEG4/ISO/AVC
Duration                    : 1 h 58 min
Bit rate                    : 2 018 kb/s
Width                       : 1 920 pixels
Height                      : 808 pixels
Display aspect ratio        : 2.40:1
Frame rate mode             : Constant
Frame rate                  : 23.976 (24000/1001) FPS
Color space                 : YUV
Chroma subsampling          : 4:2:0
Bit depth                   : 8 bits
Scan type                   : Progressive
Bits/(Pixel*Frame)          : 0.054
Stream size                 : 1.66 GiB (62%)
Writing library             : x264 core 155 r2901 7d0ff22
Encoding settings           : cabac=1 / ref=3 / deblock=1:0:0 / analyse=0x3:0x113 / me=hex / subme=7 / psy=1 / psy_rd=1.00:0.00 / mixed_ref=1 / me_range=16 / chroma_me=1 / trellis=1 / 8x8dct=1 / cqm=0 / deadzone=21,11 / fast_pskip=1 / chroma_qp_offset=-2 / threads=25 / lookahead_threads=4 / sliced_threads=0 / nr=0 / decimate=1 / interlaced=0 / bluray_compat=0 / constrained_intra=0 / bframes=3 / b_pyramid=2 / b_adapt=1 / b_bias=0 / direct=1 / weightb=1 / open_gop=0 / weightp=2 / keyint=240 / keyint_min=23 / scenecut=40 / intra_refresh=0 / rc_lookahead=40 / rc=2pass / mbtree=1 / bitrate=2018 / ratetol=1.0 / qcomp=0.60 / qpmin=0 / qpmax=69 / qpstep=4 / cplxblur=20.0 / qblur=0.5 / ip_ratio=1.40 / aq=1:1.00
Language                    : English
Default                     : Yes
Forced                      : No

Audio #1
ID                          : 2
Format                      : AC-3
Format/Info                 : Audio Coding 3
Format settings, Endianness : Big
Codec ID                    : A_AC3
Duration                    : 1 h 58 min
Bit rate mode               : Constant
Bit rate                    : 384 kb/s
Channel(s)                  : 6 channels
Channel positions           : Front: L C R, Side: L R, LFE
Sampling rate               : 44.1 kHz
Frame rate                  : 28.711 FPS (1536 SPF)
Bit depth                   : 16 bits
Compression mode            : Lossy
Stream size                 : 324 MiB (12%)
Language                    : Telugu
Service kind                : Complete Main
Default                     : Yes
Forced                      : No

Audio #2
ID                          : 3
Format                      : AC-3
Format/Info                 : Audio Coding 3
Format settings, Endianness : Big
Codec ID                    : A_AC3
Duration                    : 1 h 58 min
Bit rate mode               : Constant
Bit rate                    : 384 kb/s
Channel(s)                  : 6 channels
Channel positions           : Front: L C R, Side: L R, LFE
Sampling rate               : 44.1 kHz
Frame rate                  : 28.711 FPS (1536 SPF)
Bit depth                   : 16 bits
Compression mode            : Lossy
Stream size                 : 324 MiB (12%)
Language                    : Tamil
Service kind                : Complete Main
Default                     : No
Forced                      : No

Audio #3
ID                          : 4
Format                      : AC-3
Format/Info                 : Audio Coding 3
Format settings, Endianness : Big
Codec ID                    : A_AC3
Duration                    : 1 h 58 min
Bit rate mode               : Constant
Bit rate                    : 384 kb/s
Channel(s)                  : 6 channels
Channel positions           : Front: L C R, Side: L R, LFE
Sampling rate               : 44.1 kHz
Frame rate                  : 28.711 FPS (1536 SPF)
Bit depth                   : 16 bits
Compression mode            : Lossy
Stream size                 : 324 MiB (12%)
Language                    : Hindi
Service kind                : Complete Main
Default                     : No
Forced                      : No

Audio #4
ID                          : 5
Format                      : MPEG Audio
Format version              : Version 1
Format profile              : Layer 3
Mode                        : Joint stereo
Mode extension              : MS Stereo
Codec ID                    : A_MPEG/L3
Codec ID/Hint               : MP3
Duration                    : 1 h 58 min
Bit rate mode               : Variable
Bit rate                    : 83.2 kb/s
Nominal bit rate            : 96.0 kb/s
Channel(s)                  : 2 channels
Sampling rate               : 44.1 kHz
Frame rate                  : 38.281 FPS (1152 SPF)
Compression mode            : Lossy
Stream size                 : 70.3 MiB (3%)
Writing library             : LAME3.99r
Encoding settings           : -m j -V 4 -q 3 -lowpass 15.1 --abr 96
Language                    : English
Default                     : No
Forced                      : No

Text
ID                          : 6
Format                      : UTF-8
Codec ID                    : S_TEXT/UTF8
Codec ID/Info               : UTF-8 Plain Text
Duration                    : 1 h 57 min
Bit rate                    : 67 b/s
Count of elements           : 2132
Stream size                 : 57.8 KiB (0%)
Language                    : English
Default                     : Yes
Forced                      : No






SINGLE DIRECT FAST LINKS
http://www.heroupload.us/0c1bd1d3ad40c661/Ant-Man.2.2018.BluRay.1080p.Proper.Original.Audios.DD5.1.Telugu+Tamil+Hindi+English.mkv


http://filefloater.com/2AZk/Ant-Man.2.2018.BluRay.1080p.Proper.Original.Audios.DD5.1.Telugu+Tamil+Hindi+English.mkv

700MB LINKS


http://www.heroupload.us/c5e0e7ad5138047f/Ant-Man.2.2018.BluRay.1080p.Proper.Original.Audios.DD5.1.Telugu+Tamil+Hindi+English.part1.rar
http://www.heroupload.us/6b537fceb71d2dda/Ant-Man.2.2018.BluRay.1080p.Proper.Original.Audios.DD5.1.Telugu+Tamil+Hindi+English.part2.rar
http://www.heroupload.us/9f663dc237314ecd/Ant-Man.2.2018.BluRay.1080p.Proper.Original.Audios.DD5.1.Telugu+Tamil+Hindi+English.part3.rar
http://www.heroupload.us/7fd5f8ff9e2047f2/Ant-Man.2.2018.BluRay.1080p.Proper.Original.Audios.DD5.1.Telugu+Tamil+Hindi+English.part4.rar



http://filefloater.com/2AZl/Ant-Man.2.2018.BluRay.1080p.Proper.Original.Audios.DD5.1.Telugu+Tamil+Hindi+English.part1.rar
http://filefloater.com/2AZm/Ant-Man.2.2018.BluRay.1080p.Proper.Original.Audios.DD5.1.Telugu+Tamil+Hindi+English.part2.rar
http://filefloater.com/2AZn/Ant-Man.2.2018.BluRay.1080p.Proper.Original.Audios.DD5.1.Telugu+Tamil+Hindi+English.part3.rar
http://filefloater.com/2AZo/Ant-Man.2.2018.BluRay.1080p.Proper.Original.Audios.DD5.1.Telugu+Tamil+Hindi+English.part4.rar


Buy Premium From My Links & Support Me
шаблоны для dle 11.2